Jump to content
Encod.es Forum

Leaderboard


Popular Content

Showing most liked content since 01/17/18 in all areas

  1. 1 point
    Download: Torrent 1 | Torrent 2 | Torrent 3 | Magnet Screenshots: Mediainfo: General Unique ID : 35690872546992624230833286051730202171 (0x1AD9CFE068A565DEB5E045BB7F829E3B) Complete name : D:\Encodes\[YE] Citrus (BS-Fuji 1920x1080 x264 AAC)\[YE] Citrus - 02 (BS-Fuji 1920x1080 x264 AAC).mkv Format : Matroska Format version : Version 4 / Version 2 File size : 1.13 GiB Duration : 23 min 39 s Overall bit rate : 6 854 kb/s Encoded date : UTC 2018-01-17 14:32:59 Writing application : mkvmerge v19.0.0 ('Brave Captain') 64-bit Writing library : libebml v1.3.5 + libmatroska v1.4.8 Video ID : 1 Format : AVC Format/Info : Advanced Video Codec Format profile : [email protected] Format settings : CABAC / 8 Ref Frames Format settings, CABAC : Yes Format settings, RefFrames : 8 frames Codec ID : V_MPEG4/ISO/AVC Duration : 23 min 39 s Bit rate : 6 599 kb/s Width : 1 920 pixels Height : 1 080 pixels Display aspect ratio : 16:9 Frame rate mode : Constant Frame rate : 23.976 (24000/1001) FPS Color space : YUV Chroma subsampling : 4:2:0 Bit depth : 8 bits Scan type : Progressive Bits/(Pixel*Frame) : 0.133 Stream size : 1.09 GiB (96%) Writing library : x264 core 152 r2851kMod ba24899 Encoding settings : cabac=1 / ref=8 / deblock=1:-1:-2 / analyse=0x3:0x133 / me=umh / subme=10 / psy=1 / fade_compensate=0.00 / psy_rd=0.70:0.10 / mixed_ref=1 / me_range=32 / chroma_me=1 / trellis=2 / 8x8dct=1 / cqm=0 / deadzone=21,11 / fast_pskip=0 / chroma_qp_offset=-3 / threads=12 / lookahead_threads=3 / sliced_threads=0 / nr=0 / decimate=1 / interlaced=0 / bluray_compat=0 / constrained_intra=0 / bframes=16 / b_pyramid=2 / b_adapt=2 / b_bias=0 / direct=3 / weightb=1 / open_gop=0 / weightp=2 / keyint=240 / keyint_min=23 / scenecut=40 / intra_refresh=0 / rc_lookahead=50 / rc=crf / mbtree=1 / crf=16.0000 / qcomp=0.60 / qpmin=0 / qpmax=69 / qpstep=4 / ip_ratio=1.40 / aq=2:0.80 Language : Japanese Default : Yes Forced : No Audio ID : 2 Format : AAC Format/Info : Advanced Audio Codec Format profile : LC Codec ID : A_AAC-2 Duration : 23 min 39 s Bit rate : 253 kb/s Channel(s) : 2 channels Channel positions : Front: L R Sampling rate : 48.0 kHz Frame rate : 46.875 FPS (1024 SPF) Compression mode : Lossy Stream size : 42.8 MiB (4%) Language : Japanese Default : Yes Forced : No
×